Author Topic: raw2dng.app 0.13 Osx GUI development, bugs and updates  (Read 370071 times)

dariSSight#1

  • New to the forum
  • *
  • Posts: 47
  • Canon 5D Mark II
Re: raw2dng.app 0.13 Osx GUI development, bugs and updates
« Reply #325 on: July 06, 2013, 03:14:58 PM »
I love the raw2dng.app .RAW converter, I'm wondering how accurate the white balance auto, can you give an option like we have with ProRes 4444 and Destination folder to turn off.

Lucas480

  • New to the forum
  • *
  • Posts: 6
  • 550D powered by Magic Lantern
Re: raw2dng.app 0.13 Osx GUI development, bugs and updates
« Reply #326 on: July 09, 2013, 08:33:55 AM »
Hey, thanks for the program but, How to deactivate DNGs for keep only prores 4444?
The Cinema, Is truth twenty-four times per seconds

Danne

  • Developer
  • Hero Member
  • *****
  • Posts: 7382
Re: raw2dng.app 0.13 Osx GUI development, bugs and updates
« Reply #327 on: July 09, 2013, 09:30:35 AM »
you can,t at the moment. I fiddled around with adobe media encoder and managed to export rawfiles to ProRes by adding the ginger-plugin to the media encoder encoder. You could try that if you work with adobe software.

Instructions
http://www.magiclantern.fm/forum/index.php?topic=6550.msg51797#msg51797


Lucas480

  • New to the forum
  • *
  • Posts: 6
  • 550D powered by Magic Lantern
Re: raw2dng.app 0.13 Osx GUI development, bugs and updates
« Reply #328 on: July 09, 2013, 11:51:44 AM »
Thanks but I think at this moment, the best solution is Raw2dng.
The Cinema, Is truth twenty-four times per seconds

khurra

  • New to the forum
  • *
  • Posts: 14
Re: raw2dng.app 0.13 Osx GUI development, bugs and updates
« Reply #329 on: July 11, 2013, 12:17:49 AM »
figured it out, i was downloading the executables with CHROME on my Mac and for some reason CHROME messes up files downloaded that have to install.

does anyone know why this would be? Even messes up DMGs when they are downloaded to 100%.

Danne

  • Developer
  • Hero Member
  • *****
  • Posts: 7382
Re: raw2dng.app 0.13 Osx GUI development, bugs and updates
« Reply #330 on: July 11, 2013, 11:12:53 AM »
Hi!
Would it be possible to implement an extra step wich would give the alternative to produce a more edit-friendly proxyfile?. Maybe at half size of the original-file. 1920x1080 dng and 960x540 proxy (ProRes-files)?
Thanks
//D

jc

  • New to the forum
  • *
  • Posts: 35
Re: raw2dng.app 0.13 Osx GUI development, bugs and updates
« Reply #331 on: July 16, 2013, 04:28:00 PM »
Has development stopped for this fantastic app?

I really hope not as it shows a lot of promis but features people were looking for include:
1) joining of multiple .r001 .r002 etc.. Files for the 5d2, 50d and others that require 4gb split files
2) a better GUI for selecting options such as if it makes a pro-res file and options for it ( as opposed to dragging in the GUI into its self with limited options )
3) some kind of preview of clips before they are converted over .. Maybe dropping frames or even B&W but this would be a huge time saver as I could know what clips are what

I think the option of a lower res prores sounds a great idea too! :-)

Also for me the pro res files come out way too dark on my 5dii, do others have this issue. Currently editing in premiere and auto levels fixes this just fine but it's an odd issue

Also will it be open sourced ? Seems that as magic lantern is an open effort the raw converter tools would benefit from being so too!

Anyway love to see some more progress ! James

Olli5D

  • New to the forum
  • *
  • Posts: 4
color problem raw2dng.app
« Reply #332 on: July 17, 2013, 04:54:58 PM »
this raw2dng gives me directly Prores4444, Just Drag and Drop. cool.

But now i checked the prores files and they are shit.

The color within a shot keeps changing. Not really from frame to frame,
but with in 3 or 4 frames, skin tones suddenly green or blue.
Sucks.

But when i do Photoshop then export to tiff then quicktime pro to sequence,
everything fine.

Now I need a new converter from raw to dng,
cause raw2dng does the prores transfer automatically and that keeps ages.

iamoui

  • New to the forum
  • *
  • Posts: 46
Re: color problem raw2dng.app
« Reply #333 on: July 17, 2013, 05:10:34 PM »
this raw2dng gives me directly Prores4444, Just Drag and Drop. cool.

But now i checked the prores files and they are shit.

The color within a shot keeps changing. Not really from frame to frame,
but with in 3 or 4 frames, skin tones suddenly green or blue.
Sucks.

But when i do Photoshop then export to tiff then quicktime pro to sequence,
everything fine.

Now I need a new converter from raw to dng,
cause raw2dng does the prores transfer automatically and that keeps ages.

Olli5D, from what I understand the generated ProRes file is to be used for reference, not as an actual finished ProRes file. It allows you to quickly look at your converted raw footage so to have an idea how they came out. From there you can judge if it will be a useable clip for you.

Olli5D

  • New to the forum
  • *
  • Posts: 4
Re: raw2dng.app 0.13 Osx GUI development, bugs and updates
« Reply #334 on: July 17, 2013, 05:26:38 PM »
Well... that makes sense.
But wait so long just for a preview? without having the option to skip this process and stay with your dngs?
Strange.

menoc

  • Senior
  • ****
  • Posts: 273
Re: raw2dng.app 0.13 Osx GUI development, bugs and updates
« Reply #335 on: July 17, 2013, 05:28:30 PM »
Is this still a problem with raw2dng?

For some reason, the proresHQ 4444 file put out by raw2dng is unrecognized by my system - OSX 10.8.4





Anybody has any idea why? Here's the resultant text:

Code: [Select]

raw2dng converter GUI for OsX
Beta ver.0.13

M28-1957 File Supported
Generating ProResHQ 4444 with FPS: 23.976
ffmpeg version 1.2.1-tessus Copyright (c) 2000-2013 the FFmpeg developers
  built on May  9 2013 21:58:14 with llvm-gcc 4.2.1 (LLVM build 2336.1.00)
  configuration: --prefix=/Users/tessus/data/ext/ffmpeg/sw --as=yasm --extra-version=tessus --disable-shared --enable-static --disable-ffplay --enable-gpl --enable-pthreads --enable-postproc --enable-libmp3lame --enable-libtheora --enable-libvorbis --enable-libx264 --enable-libxvid --enable-libspeex --enable-bzlib --enable-zlib --enable-libopencore-amrnb --enable-libopencore-amrwb --enable-libxavs --enable-version3 --enable-libvo-aacenc --enable-libvo-amrwbenc --enable-libvpx --enable-libgsm --enable-libopus --enable-fontconfig --enable-libfreetype --enable-libass --enable-filters --enable-runtime-cpudetect
  libavutil      52. 18.100 / 52. 18.100
  libavcodec     54. 92.100 / 54. 92.100
  libavformat    54. 63.104 / 54. 63.104
  libavdevice    54.  3.103 / 54.  3.103
  libavfilter     3. 42.103 /  3. 42.103
  libswscale      2.  2.100 /  2.  2.100
  libswresample   0. 17.102 /  0. 17.102
  libpostproc    52.  2.100 / 52.  2.100
[image2pipe @ 0x102019600] Stream #0: not enough frames to estimate rate; consider increasing probesize
[image2pipe @ 0x102019600] Estimating duration from bitrate, this may be inaccurate
Input #0, image2pipe, from 'pipe:0':
  Duration: N/A, bitrate: N/A
    Stream #0:0: Video: ppm, rgb48be, 1920x1080, 23.98 tbr, 23.98 tbn, 23.98 tbc
Output #0, mov, to '/Users/oscarmoreno/Desktop/test/M28-1957.mov':
  Metadata:
    encoder         : Lavf54.63.104
    Stream #0:0: Video: prores (apch / 0x68637061), yuv444p10le, 1920x1080, q=2-31, 200 kb/s, 11988 tbn, 23.98 tbc
Stream mapping:
  Stream #0:0 -> #0:0 (ppm -> prores_kostya)
frame=    3 fps=2.1 q=0.0 size=    2844kB time=00:00:00.12 bitrate=186177.9kbits/s   
frame=    4 fps=1.6 q=0.0 size=    3792kB time=00:00:00.16 bitrate=186204.1kbits/s   
frame=    5 fps=1.4 q=0.0 size=    4740kB time=00:00:00.20 bitrate=186198.5kbits/s   
frame=    6 fps=1.3 q=0.0 size=    5688kB time=00:00:00.25 bitrate=186211.6kbits/s   
frame=    7 fps=1.3 q=0.0 size=    6637kB time=00:00:00.29 bitrate=186225.3kbits/s   
frame=    8 fps=1.2 q=0.0 size=    7585kB time=00:00:00.33 bitrate=186231.5kbits/s   
frame=    9 fps=1.2 q=0.0 size=    8533kB time=00:00:00.37 bitrate=186225.4kbits/s   
frame=   10 fps=1.2 q=0.0 size=    9481kB time=00:00:00.41 bitrate=186221.4kbits/s   
frame=   11 fps=1.1 q=0.0 size=   10428kB time=00:00:00.45 bitrate=186206.4kbits/s   
frame=   12 fps=1.1 q=0.0 size=   11377kB time=00:00:00.50 bitrate=186209.4kbits/s   
frame=   13 fps=1.1 q=0.0 size=   12325kB time=00:00:00.54 bitrate=186211.3kbits/s   
frame=   14 fps=1.1 q=0.0 size=   13273kB time=00:00:00.58 bitrate=186209.0kbits/s   
frame=   15 fps=1.1 q=0.0 size=   14221kB time=00:00:00.62 bitrate=186216.2kbits/s   
frame=   16 fps=1.1 q=0.0 size=   15169kB time=00:00:00.66 bitrate=186212.7kbits/s   
frame=   17 fps=1.1 q=0.0 size=   16118kB time=00:00:00.70 bitrate=186218.8kbits/s   
frame=   18 fps=1.1 q=0.0 size=   17065kB time=00:00:00.75 bitrate=186210.9kbits/s   
frame=   19 fps=1.1 q=0.0 size=   18013kB time=00:00:00.79 bitrate=186204.8kbits/s   
frame=   20 fps=1.1 q=0.0 size=   18961kB time=00:00:00.83 bitrate=186203.5kbits/s   
frame=   21 fps=1.1 q=0.0 size=   19909kB time=00:00:00.87 bitrate=186204.9kbits/s   
frame=   22 fps=1.0 q=0.0 size=   20857kB time=00:00:00.91 bitrate=186204.0kbits/s   
frame=   23 fps=1.0 q=0.0 size=   21805kB time=00:00:00.95 bitrate=186202.9kbits/s   
frame=   24 fps=1.0 q=0.0 size=   22752kB time=00:00:01.00 bitrate=186202.0kbits/s   
frame=   25 fps=1.0 q=0.0 size=   23701kB time=00:00:01.04 bitrate=186206.6kbits/s   
frame=   26 fps=1.0 q=0.0 size=   24650kB time=00:00:01.08 bitrate=186209.7kbits/s   
frame=   27 fps=1.0 q=0.0 size=   25597kB time=00:00:01.12 bitrate=186208.6kbits/s   
frame=   28 fps=1.0 q=0.0 size=   26546kB time=00:00:01.16 bitrate=186211.4kbits/s   
frame=   29 fps=1.0 q=0.0 size=   27494kB time=00:00:01.20 bitrate=186211.7kbits/s   
frame=   30 fps=1.0 q=0.0 size=   28442kB time=00:00:01.25 bitrate=186208.4kbits/s   
frame=   31 fps=1.0 q=0.0 size=   29389kB time=00:00:01.29 bitrate=186205.5kbits/s   
frame=   32 fps=1.0 q=0.0 size=   30337kB time=00:00:01.33 bitrate=186203.8kbits/s   
frame=   33 fps=1.0 q=0.0 size=   31284kB time=00:00:01.37 bitrate=186198.8kbits/s   
frame=   34 fps=1.0 q=0.0 size=   32233kB time=00:00:01.41 bitrate=186201.7kbits/s   
frame=   35 fps=1.0 q=0.0 size=   33181kB time=00:00:01.45 bitrate=186202.6kbits/s   
frame=   36 fps=1.0 q=0.0 size=   34129kB time=00:00:01.50 bitrate=186203.7kbits/s   
frame=   37 fps=1.0 q=0.0 size=   35077kB time=00:00:01.54 bitrate=186202.6kbits/s   
frame=   38 fps=1.0 q=0.0 size=   36026kB time=00:00:01.58 bitrate=186206.1kbits/s   
frame=   39 fps=1.0 q=0.0 size=   36973kB time=00:00:01.62 bitrate=186205.2kbits/s   
frame=   40 fps=1.0 q=0.0 size=   37922kB time=00:00:01.66 bitrate=186205.4kbits/s   
frame=   41 fps=1.0 q=0.0 size=   38869kB time=00:00:01.71 bitrate=186203.8kbits/s   
frame=   42 fps=1.0 q=0.0 size=   39817kB time=00:00:01.75 bitrate=186205.0kbits/s   
frame=   43 fps=1.0 q=0.0 size=   40765kB time=00:00:01.79 bitrate=186204.8kbits/s   
frame=   44 fps=1.0 q=0.0 size=   41713kB time=00:00:01.83 bitrate=186201.0kbits/s   
frame=   45 fps=1.0 q=0.0 size=   42660kB time=00:00:01.87 bitrate=186196.7kbits/s   
frame=   46 fps=1.0 q=0.0 size=   43608kB time=00:00:01.91 bitrate=186196.9kbits/s   
frame=   47 fps=1.0 q=0.0 size=   44556kB time=00:00:01.96 bitrate=186196.1kbits/s   
frame=   48 fps=1.0 q=0.0 size=   45503kB time=00:00:02.00 bitrate=186195.8kbits/s   
frame=   49 fps=1.0 q=0.0 size=   46452kB time=00:00:02.04 bitrate=186197.0kbits/s   
frame=   50 fps=1.0 q=0.0 size=   47401kB time=00:00:02.08 bitrate=186200.4kbits/s   
frame=   51 fps=1.0 q=0.0 size=   48349kB time=00:00:02.12 bitrate=186202.9kbits/s   
frame=   52 fps=1.0 q=0.0 size=   49298kB time=00:00:02.16 bitrate=186206.9kbits/s   
frame=   53 fps=1.0 q=0.0 size=   50247kB time=00:00:02.21 bitrate=186210.0kbits/s   
frame=   54 fps=1.0 q=0.0 size=   51195kB time=00:00:02.25 bitrate=186209.3kbits/s   
frame=   55 fps=1.0 q=0.0 size=   52144kB time=00:00:02.29 bitrate=186211.3kbits/s   
frame=   56 fps=1.0 q=0.0 size=   53092kB time=00:00:02.33 bitrate=186213.0kbits/s   
frame=   57 fps=1.0 q=0.0 size=   54041kB time=00:00:02.37 bitrate=186213.6kbits/s   
frame=   58 fps=1.0 q=0.0 size=   54988kB time=00:00:02.41 bitrate=186213.1kbits/s   
frame=   59 fps=1.0 q=0.0 size=   55936kB time=00:00:02.46 bitrate=186211.6kbits/s   
frame=   60 fps=1.0 q=0.0 size=   56884kB time=00:00:02.50 bitrate=186212.4kbits/s   
frame=   61 fps=1.0 q=0.0 size=   57832kB time=00:00:02.54 bitrate=186209.4kbits/s   
frame=   62 fps=1.0 q=0.0 size=   58779kB time=00:00:02.58 bitrate=186209.0kbits/s   
frame=   63 fps=1.0 q=0.0 size=   59727kB time=00:00:02.62 bitrate=186208.0kbits/s   
frame=   64 fps=1.0 q=0.0 size=   60675kB time=00:00:02.66 bitrate=186208.5kbits/s   
frame=   65 fps=1.0 q=0.0 size=   61624kB time=00:00:02.71 bitrate=186208.7kbits/s   
frame=   66 fps=1.0 q=0.0 size=   62572kB time=00:00:02.75 bitrate=186208.7kbits/s   
frame=   67 fps=1.0 q=0.0 size=   63519kB time=00:00:02.79 bitrate=186206.9kbits/s   
frame=   68 fps=1.0 q=0.0 size=   64467kB time=00:00:02.83 bitrate=186207.1kbits/s   
frame=   69 fps=1.0 q=0.0 size=   65415kB time=00:00:02.87 bitrate=186206.6kbits/s   
frame=   70 fps=1.0 q=0.0 size=   66364kB time=00:00:02.91 bitrate=186209.1kbits/s   
frame=   71 fps=1.0 q=0.0 size=   67312kB time=00:00:02.96 bitrate=186209.0kbits/s   
frame=   72 fps=1.0 q=0.0 size=   68261kB time=00:00:03.00 bitrate=186210.4kbits/s   
frame=   73 fps=1.0 q=0.0 size=   69208kB time=00:00:03.04 bitrate=186209.6kbits/s   
frame=   74 fps=1.0 q=0.0 size=   70158kB time=00:00:03.08 bitrate=186213.7kbits/s   
frame=   75 fps=1.0 q=0.0 size=   71106kB time=00:00:03.12 bitrate=186213.8kbits/s   
frame=  613 fps=1.0 q=0.0 size=  581090kB time=00:00:25.56 bitrate=186187.0kbits/s   
/Applications/raw2dng.app/Contents/Resources/script: line 40:  4661 Done                    "$DCRAW" -c -H 0 -6 -W -q 3 "$Wtemp" *.dng
      4662 Segmentation fault: 11  | "$FFMPEG" -f image2pipe -vcodec ppm -r "$FPS" -i pipe:0 -vcodec prores_kostya -profile:v 3 -vendor ap10 -pix_fmt yuv444p10 -y -r "$FPS" "$FLDR$FILE_NAME".mov
Done


Olli5D

  • New to the forum
  • *
  • Posts: 4
Re: raw2dng.app 0.13 Osx GUI development, bugs and updates
« Reply #336 on: July 17, 2013, 05:34:22 PM »
Also  OSX 10.8.4 here. But works fine with me.
What version of FCP you have?

jaybirch

  • New to the forum
  • *
  • Posts: 27
Re: raw2dng.app 0.13 Osx GUI development, bugs and updates
« Reply #337 on: July 17, 2013, 06:20:24 PM »
(EDIT) Was my firewall.

menoc

  • Senior
  • ****
  • Posts: 273
Re: raw2dng.app 0.13 Osx GUI development, bugs and updates
« Reply #338 on: July 17, 2013, 06:20:54 PM »
Also  OSX 10.8.4 here. But works fine with me.
What version of FCP you have?

Still using FCP 7. . .

Danne

  • Developer
  • Hero Member
  • *****
  • Posts: 7382
Re: raw2dng.app 0.13 Osx GUI development, bugs and updates
« Reply #339 on: July 17, 2013, 06:38:16 PM »
Well... that makes sense.
But wait so long just for a preview? without having the option to skip this process and stay with your dngs?
Strange.

If you doubleclick the app and the drag and drop the app onto the app a bunch of options appear in front of you. In there you can skip the ProRes and also choose white balance presets. I suggest you choose cloudy for your ProRes instead of automatic.
Download link works fine. It,s on the first page, the first topic.

aaphotog

  • Senior
  • ****
  • Posts: 356
Re: raw2dng.app 0.13 Osx GUI development, bugs and updates
« Reply #340 on: July 17, 2013, 08:44:31 PM »
This doesn't work for me. When the app is on an external I don't get the options. When the app is on my desktop, I get the options but when I select the external as my output drive, it still puts the files on my desktop where the app is. So I can only have one or the either. Files get placed on my external, but I can't stop the pro res, or I can stop the pro res, but files must be on the desktop.

Danne

  • Developer
  • Hero Member
  • *****
  • Posts: 7382
Re: raw2dng.app 0.13 Osx GUI development, bugs and updates
« Reply #341 on: July 17, 2013, 09:47:34 PM »
Strange. Works fine over here on my external drive. I have extracted my app in the same folder as the raw-files. Have you checked your names of your folders, maybe some issue with those?
Lately I skipped raw2dng due to not being able to convert larger files. For now I extract proxy pro res with adobe media encoder and dng,s with rawmagic.
By the way, where,s Scrax lately? vacation :)?

aptass

  • New to the forum
  • *
  • Posts: 6
Re: raw2dng.app 0.13 Osx GUI development, bugs and updates
« Reply #342 on: July 18, 2013, 10:03:56 AM »
This doesn't work for me. When the app is on an external I don't get the options. When the app is on my desktop, I get the options but when I select the external as my output drive, it still puts the files on my desktop where the app is. So I can only have one or the either. Files get placed on my external, but I can't stop the pro res, or I can stop the pro res, but files must be on the desktop.

If it doesn't work check so your directory names doesn't contain any spaces.
You should see the full path when clicking details and Error 125 if that is the case.
It outputs to your desktop because that is saved in the options.

jamesk

  • New to the forum
  • *
  • Posts: 2
Re: raw2dng.app 0.13 Osx GUI development, bugs and updates
« Reply #343 on: July 20, 2013, 07:26:46 PM »
Newbie to RAW here; Trying to convert my first 5Dii RAW test with raw2dng 0.13 on a 2007 Macbook pro.
After I drag and drop, it starts to process then the application quits unexpectedly!
Is my comp just too old and slow to do it, or am I missing something?

squig

  • Hero Member
  • *****
  • Posts: 518
  • Crash test dummy MK3
Re: raw2dng.app 0.13 Osx GUI development, bugs and updates
« Reply #344 on: July 21, 2013, 04:07:03 AM »
Do you have prores on the macbook?

Drop the raw2dng app icon onto the raw2dng dialog window and try it without doing a prores conversion.

Working with raw files will be painfully slow on that mac.

jamesk

  • New to the forum
  • *
  • Posts: 2
Re: raw2dng.app 0.13 Osx GUI development, bugs and updates
« Reply #345 on: July 21, 2013, 08:13:29 AM »
Thanks for the tip, Squig.
Tried it with ProResHQ 444 Conversion set to No... application quits unexpectedly.
I'm thinking it's my archaic machine. I'm going to give it a try on a friends newer pc.

squig

  • Hero Member
  • *****
  • Posts: 518
  • Crash test dummy MK3
Re: raw2dng.app 0.13 Osx GUI development, bugs and updates
« Reply #346 on: July 21, 2013, 10:53:07 AM »
It's 64bit.

Danne

  • Developer
  • Hero Member
  • *****
  • Posts: 7382
Re: raw2dng.app 0.13 Osx GUI development, bugs and updates
« Reply #347 on: July 21, 2013, 02:52:22 PM »
Try rightclick on the icon. Choose 32-bit?

Indianac

  • New to the forum
  • *
  • Posts: 19
Re: raw2dng.app 0.13 Osx GUI development, bugs and updates
« Reply #348 on: July 23, 2013, 06:14:02 AM »
Ok, I'm getting a dead pixel in my footage. Not sure if it's a h/w issue on the sensor, the build (July 11 A1ex), or the raw2dng.  I have the raw files from the camera if someone would like to take a look.  Let me know where to drop it. 

H/W: 5D Mark ii, Shot on various lenses, 64gb Komputerbay 1000x CF
Post: raw2dng ->davinci resolve lite 9 -> fcpx
Settings:
1880x800
2.35:1
1880: on
Frame Skipping: off
Small Hacks: on


bashi

  • Freshman
  • **
  • Posts: 53
Re: raw2dng.app 0.13 Osx GUI development, bugs and updates
« Reply #349 on: July 23, 2013, 03:53:21 PM »
Is this still a problem with raw2dng?

For some reason, the proresHQ 4444 file put out by raw2dng is unrecognized by my system - OSX 10.8.4





Anybody has any idea why? Here's the resultant text:

Code: [Select]

raw2dng converter GUI for OsX
Beta ver.0.13

M28-1957 File Supported
Generating ProResHQ 4444 with FPS: 23.976
ffmpeg version 1.2.1-tessus Copyright (c) 2000-2013 the FFmpeg developers
  built on May  9 2013 21:58:14 with llvm-gcc 4.2.1 (LLVM build 2336.1.00)
  configuration: --prefix=/Users/tessus/data/ext/ffmpeg/sw --as=yasm --extra-version=tessus --disable-shared --enable-static --disable-ffplay --enable-gpl --enable-pthreads --enable-postproc --enable-libmp3lame --enable-libtheora --enable-libvorbis --enable-libx264 --enable-libxvid --enable-libspeex --enable-bzlib --enable-zlib --enable-libopencore-amrnb --enable-libopencore-amrwb --enable-libxavs --enable-version3 --enable-libvo-aacenc --enable-libvo-amrwbenc --enable-libvpx --enable-libgsm --enable-libopus --enable-fontconfig --enable-libfreetype --enable-libass --enable-filters --enable-runtime-cpudetect
  libavutil      52. 18.100 / 52. 18.100
  libavcodec     54. 92.100 / 54. 92.100
  libavformat    54. 63.104 / 54. 63.104
  libavdevice    54.  3.103 / 54.  3.103
  libavfilter     3. 42.103 /  3. 42.103
  libswscale      2.  2.100 /  2.  2.100
  libswresample   0. 17.102 /  0. 17.102
  libpostproc    52.  2.100 / 52.  2.100
[image2pipe @ 0x102019600] Stream #0: not enough frames to estimate rate; consider increasing probesize
[image2pipe @ 0x102019600] Estimating duration from bitrate, this may be inaccurate
Input #0, image2pipe, from 'pipe:0':
  Duration: N/A, bitrate: N/A
    Stream #0:0: Video: ppm, rgb48be, 1920x1080, 23.98 tbr, 23.98 tbn, 23.98 tbc
Output #0, mov, to '/Users/oscarmoreno/Desktop/test/M28-1957.mov':
  Metadata:
    encoder         : Lavf54.63.104
    Stream #0:0: Video: prores (apch / 0x68637061), yuv444p10le, 1920x1080, q=2-31, 200 kb/s, 11988 tbn, 23.98 tbc
Stream mapping:
  Stream #0:0 -> #0:0 (ppm -> prores_kostya)
frame=    3 fps=2.1 q=0.0 size=    2844kB time=00:00:00.12 bitrate=186177.9kbits/s   
frame=    4 fps=1.6 q=0.0 size=    3792kB time=00:00:00.16 bitrate=186204.1kbits/s   
frame=    5 fps=1.4 q=0.0 size=    4740kB time=00:00:00.20 bitrate=186198.5kbits/s   
frame=    6 fps=1.3 q=0.0 size=    5688kB time=00:00:00.25 bitrate=186211.6kbits/s   
frame=    7 fps=1.3 q=0.0 size=    6637kB time=00:00:00.29 bitrate=186225.3kbits/s   
frame=    8 fps=1.2 q=0.0 size=    7585kB time=00:00:00.33 bitrate=186231.5kbits/s   
frame=    9 fps=1.2 q=0.0 size=    8533kB time=00:00:00.37 bitrate=186225.4kbits/s   
frame=   10 fps=1.2 q=0.0 size=    9481kB time=00:00:00.41 bitrate=186221.4kbits/s   
frame=   11 fps=1.1 q=0.0 size=   10428kB time=00:00:00.45 bitrate=186206.4kbits/s   
frame=   12 fps=1.1 q=0.0 size=   11377kB time=00:00:00.50 bitrate=186209.4kbits/s   
frame=   13 fps=1.1 q=0.0 size=   12325kB time=00:00:00.54 bitrate=186211.3kbits/s   
frame=   14 fps=1.1 q=0.0 size=   13273kB time=00:00:00.58 bitrate=186209.0kbits/s   
frame=   15 fps=1.1 q=0.0 size=   14221kB time=00:00:00.62 bitrate=186216.2kbits/s   
frame=   16 fps=1.1 q=0.0 size=   15169kB time=00:00:00.66 bitrate=186212.7kbits/s   
frame=   17 fps=1.1 q=0.0 size=   16118kB time=00:00:00.70 bitrate=186218.8kbits/s   
frame=   18 fps=1.1 q=0.0 size=   17065kB time=00:00:00.75 bitrate=186210.9kbits/s   
frame=   19 fps=1.1 q=0.0 size=   18013kB time=00:00:00.79 bitrate=186204.8kbits/s   
frame=   20 fps=1.1 q=0.0 size=   18961kB time=00:00:00.83 bitrate=186203.5kbits/s   
frame=   21 fps=1.1 q=0.0 size=   19909kB time=00:00:00.87 bitrate=186204.9kbits/s   
frame=   22 fps=1.0 q=0.0 size=   20857kB time=00:00:00.91 bitrate=186204.0kbits/s   
frame=   23 fps=1.0 q=0.0 size=   21805kB time=00:00:00.95 bitrate=186202.9kbits/s   
frame=   24 fps=1.0 q=0.0 size=   22752kB time=00:00:01.00 bitrate=186202.0kbits/s   
frame=   25 fps=1.0 q=0.0 size=   23701kB time=00:00:01.04 bitrate=186206.6kbits/s   
frame=   26 fps=1.0 q=0.0 size=   24650kB time=00:00:01.08 bitrate=186209.7kbits/s   
frame=   27 fps=1.0 q=0.0 size=   25597kB time=00:00:01.12 bitrate=186208.6kbits/s   
frame=   28 fps=1.0 q=0.0 size=   26546kB time=00:00:01.16 bitrate=186211.4kbits/s   
frame=   29 fps=1.0 q=0.0 size=   27494kB time=00:00:01.20 bitrate=186211.7kbits/s   
frame=   30 fps=1.0 q=0.0 size=   28442kB time=00:00:01.25 bitrate=186208.4kbits/s   
frame=   31 fps=1.0 q=0.0 size=   29389kB time=00:00:01.29 bitrate=186205.5kbits/s   
frame=   32 fps=1.0 q=0.0 size=   30337kB time=00:00:01.33 bitrate=186203.8kbits/s   
frame=   33 fps=1.0 q=0.0 size=   31284kB time=00:00:01.37 bitrate=186198.8kbits/s   
frame=   34 fps=1.0 q=0.0 size=   32233kB time=00:00:01.41 bitrate=186201.7kbits/s   
frame=   35 fps=1.0 q=0.0 size=   33181kB time=00:00:01.45 bitrate=186202.6kbits/s   
frame=   36 fps=1.0 q=0.0 size=   34129kB time=00:00:01.50 bitrate=186203.7kbits/s   
frame=   37 fps=1.0 q=0.0 size=   35077kB time=00:00:01.54 bitrate=186202.6kbits/s   
frame=   38 fps=1.0 q=0.0 size=   36026kB time=00:00:01.58 bitrate=186206.1kbits/s   
frame=   39 fps=1.0 q=0.0 size=   36973kB time=00:00:01.62 bitrate=186205.2kbits/s   
frame=   40 fps=1.0 q=0.0 size=   37922kB time=00:00:01.66 bitrate=186205.4kbits/s   
frame=   41 fps=1.0 q=0.0 size=   38869kB time=00:00:01.71 bitrate=186203.8kbits/s   
frame=   42 fps=1.0 q=0.0 size=   39817kB time=00:00:01.75 bitrate=186205.0kbits/s   
frame=   43 fps=1.0 q=0.0 size=   40765kB time=00:00:01.79 bitrate=186204.8kbits/s   
frame=   44 fps=1.0 q=0.0 size=   41713kB time=00:00:01.83 bitrate=186201.0kbits/s   
frame=   45 fps=1.0 q=0.0 size=   42660kB time=00:00:01.87 bitrate=186196.7kbits/s   
frame=   46 fps=1.0 q=0.0 size=   43608kB time=00:00:01.91 bitrate=186196.9kbits/s   
frame=   47 fps=1.0 q=0.0 size=   44556kB time=00:00:01.96 bitrate=186196.1kbits/s   
frame=   48 fps=1.0 q=0.0 size=   45503kB time=00:00:02.00 bitrate=186195.8kbits/s   
frame=   49 fps=1.0 q=0.0 size=   46452kB time=00:00:02.04 bitrate=186197.0kbits/s   
frame=   50 fps=1.0 q=0.0 size=   47401kB time=00:00:02.08 bitrate=186200.4kbits/s   
frame=   51 fps=1.0 q=0.0 size=   48349kB time=00:00:02.12 bitrate=186202.9kbits/s   
frame=   52 fps=1.0 q=0.0 size=   49298kB time=00:00:02.16 bitrate=186206.9kbits/s   
frame=   53 fps=1.0 q=0.0 size=   50247kB time=00:00:02.21 bitrate=186210.0kbits/s   
frame=   54 fps=1.0 q=0.0 size=   51195kB time=00:00:02.25 bitrate=186209.3kbits/s   
frame=   55 fps=1.0 q=0.0 size=   52144kB time=00:00:02.29 bitrate=186211.3kbits/s   
frame=   56 fps=1.0 q=0.0 size=   53092kB time=00:00:02.33 bitrate=186213.0kbits/s   
frame=   57 fps=1.0 q=0.0 size=   54041kB time=00:00:02.37 bitrate=186213.6kbits/s   
frame=   58 fps=1.0 q=0.0 size=   54988kB time=00:00:02.41 bitrate=186213.1kbits/s   
frame=   59 fps=1.0 q=0.0 size=   55936kB time=00:00:02.46 bitrate=186211.6kbits/s   
frame=   60 fps=1.0 q=0.0 size=   56884kB time=00:00:02.50 bitrate=186212.4kbits/s   
frame=   61 fps=1.0 q=0.0 size=   57832kB time=00:00:02.54 bitrate=186209.4kbits/s   
frame=   62 fps=1.0 q=0.0 size=   58779kB time=00:00:02.58 bitrate=186209.0kbits/s   
frame=   63 fps=1.0 q=0.0 size=   59727kB time=00:00:02.62 bitrate=186208.0kbits/s   
frame=   64 fps=1.0 q=0.0 size=   60675kB time=00:00:02.66 bitrate=186208.5kbits/s   
frame=   65 fps=1.0 q=0.0 size=   61624kB time=00:00:02.71 bitrate=186208.7kbits/s   
frame=   66 fps=1.0 q=0.0 size=   62572kB time=00:00:02.75 bitrate=186208.7kbits/s   
frame=   67 fps=1.0 q=0.0 size=   63519kB time=00:00:02.79 bitrate=186206.9kbits/s   
frame=   68 fps=1.0 q=0.0 size=   64467kB time=00:00:02.83 bitrate=186207.1kbits/s   
frame=   69 fps=1.0 q=0.0 size=   65415kB time=00:00:02.87 bitrate=186206.6kbits/s   
frame=   70 fps=1.0 q=0.0 size=   66364kB time=00:00:02.91 bitrate=186209.1kbits/s   
frame=   71 fps=1.0 q=0.0 size=   67312kB time=00:00:02.96 bitrate=186209.0kbits/s   
frame=   72 fps=1.0 q=0.0 size=   68261kB time=00:00:03.00 bitrate=186210.4kbits/s   
frame=   73 fps=1.0 q=0.0 size=   69208kB time=00:00:03.04 bitrate=186209.6kbits/s   
frame=   74 fps=1.0 q=0.0 size=   70158kB time=00:00:03.08 bitrate=186213.7kbits/s   
frame=   75 fps=1.0 q=0.0 size=   71106kB time=00:00:03.12 bitrate=186213.8kbits/s   
frame=  613 fps=1.0 q=0.0 size=  581090kB time=00:00:25.56 bitrate=186187.0kbits/s   
/Applications/raw2dng.app/Contents/Resources/script: line 40:  4661 Done                    "$DCRAW" -c -H 0 -6 -W -q 3 "$Wtemp" *.dng
      4662 Segmentation fault: 11  | "$FFMPEG" -f image2pipe -vcodec ppm -r "$FPS" -i pipe:0 -vcodec prores_kostya -profile:v 3 -vendor ap10 -pix_fmt yuv444p10 -y -r "$FPS" "$FLDR$FILE_NAME".mov
Done


known issue, delete the last .dng in the folder(s). will be resolved