Show Posts

This section allows you to view all posts made by this member. Note that you can only see posts made in areas you currently have access to.


Topics - NeoUnleashed

Pages: [1]
1
Raw Video / .MOV with DualISO - Postprocess?
« on: June 26, 2018, 06:57:53 AM »
Hey,
just did some videoshots with my new cf card (KB 1066x) yesterday. Strangely, some of the files are not .MLV , instead they are .MOV
However, these files have the same huge bitrate and the typical lines from DualISO. During the whole day i never used HDR, only DualISO
on and off. Belowthe metadata from MediaInfo and a screenshot from a frame taken with VLC.
Code: [Select]
Allgemein
Complete name                            : ...\HJ3B4054.MOV
Format                                   : MPEG-4
Format profile                           : QuickTime
Codec ID                                 : qt   2007.09 (qt  /CAEP)
File size                                : 16,5 MiB
Duration                                 : 1s 376 ms
Overall bit rate mode                    : variabel
Overall bit rate                         : 101 Mb/s
Encoded date                             : UTC 2018-06-25 20:01:06
Tagged date                              : UTC 2018-06-25 20:01:06
com.apple.quicktime.make                 : Canon
com.apple.quicktime.model                : Canon EOS 5D Mark III
com.apple.quicktime.author               : XXX

Video
ID                                       : 1
Format                                   : AVC
Format/Info                              : Advanced Video Codec
Format profile                           : High@L5.1
Format settings                          : 1 Ref Frames
Format settings, CABAC                   : Nein
Format settings, RefFrames               : 1 frame
Format settings, GOP                     : N=1
Codec ID                                 : avc1
Codec ID/Info                            : Advanced Video Coding
Duration                                 : 1s 376 ms
Bit rate mode                            : variabel
Bit rate                                 : 98,7 Mb/s
Width                                    : 1 920 Pixel
Height                                   : 1 080 Pixel
Display aspect ratio                     : 16:9
Frame rate mode                          : konstant
Frame rate                               : 23,976 (24000/1001) FPS
Color space                              : YUV
Chroma subsampling                       : 4:2:0
Bit depth                                : 8 bits
Scan type                                : progressiv
Bits/(Pixel*Frame)                       : 1.986
Stream size                              : 16,2 MiB (98%)
Language                                 : Englisch
Encoded date                             : UTC 2018-06-25 20:01:06
Tagged date                              : UTC 2018-06-25 20:01:06
Color range                              : Full
Color primaries                          : BT.709
Transfer characteristics                 : BT.709
Matrix coefficients                      : BT.709

Audio
ID                                       : 2
Format                                   : PCM
Format settings                          : Little / Signed
Codec ID                                 : sowt
Duration                                 : 1s 376 ms
Bit rate mode                            : konstant
Bit rate                                 : 1 536 kb/s
Channel(s)                               : 2 Kanäle
Channel positions                        : Front: L R
Sampling rate                            : 48,0 kHz
Bit depth                                : 16 bits
Stream size                              : 258 KiB (2%)
Language                                 : Englisch
Encoded date                             : UTC 2018-06-25 20:01:06
Tagged date                              : UTC 2018-06-25 20:01:06

Andere
ID                                       : 3
Type                                     : Time code
Format                                   : QuickTime TC
Duration                                 : 1s 376 ms
Time code of first frame                 : 05:35:43:08
Time code, striped                       : Ja
Language                                 : Englisch
Kodierungs-Datum                         : UTC 2018-06-25 20:01:06
Tagging-Datum                            : UTC 2018-06-25 20:01:06
Bitraten-Modus                           : CBR



This was just a short clip, but i got way longer clips with the same phenomen. They are playable in VLC without problem and even with sound, however of course the
lines of DualISO are there and completely destroying the picture.
So do you guys have any idea how that happened and how i could still convert these videos to normal ones?

Pages: [1]